monster777.com
Inicio   -   Ayuda   -   Contacto   -   Últimos Torrents

Torrents
Documentales842
Películas11256
Películas HD2068
Series1961
  Episodios22513
Series HD244
  Episodios2743
Juegos2689
  PC1736
Variados1521
  Deportes36
  Programas592
  Videoclips102
  Otros722
Música MP3 3525
Total Torrents57258

Información
Esta web no contiene ningún tipo de fichero almacenado.

Todos los archivos se comparten mediante el BitTorrent, un programa P2P de intercambio entre usuarios.



Descarga la última versión de uTorrent y baja a la máxima velocidad:
Britney Spears - Work Bitch
Total Descargas:  3.362 En Diciembre:  3.362

Fecha:  2016-08-01



Torrent:      Descargar         Tamaño:  52,68 MB
Descripción:

General

Format : MPEG-4
Format profile : Base Media
Codec ID : isom
File size : 52.7 MiB
Duration : 3mn 54s
Overall bit rate mode : Variable
Overall bit rate : 1 882 Kbps

Video
ID : 1
Format : AVC
Format profile : Main@L3.1
Format settings, CABAC : Yes
Format settings, ReFrames : 3 frames
Duration : 3mn 54s
Source duration : 3mn 54s
Bit rate : 1 787 Kbps
Maximum bit rate : 5 085 Kbps
Width : 1 280 pixels
Height : 720 pixels
Display aspect ratio : 16:9
Frame rate mode : Variable
Frame rate : 23.976 fps
Stream size : 50.0 MiB (95%)
Title : Britney Spears - Work Bitch 720p x264 AAC E-Subs [GWC]

Audio
Format : AAC
Format profile : LC
Duration : 3mn 54s
Bit rate mode : Variable
Channel(s) : 2 channels
Sampling rate : 48.0 KHz
Stream size : 2.61 MiB (5%)
Language : English
Text
Format : Timed Text
Codec ID : tx3g
Duration : 3mn 50s
Bit rate mode : Variable
Bit rate : 100 bps
Stream size : 2.82 KiB (0%)
Title : English Subtitle by [GWC]
Language : English



Volver al índice de Variados







Datos legales


21:33:18
computer